#TITLE:8-Bit MaxXUnlimited;
#SUBTITLE:;
#ARTIST:Unknown artist;
#TITLETRANSLIT:;
#SUBTITLETRANSLIT:;
#ARTISTTRANSLIT:;
#CREDIT:;
#BANNER:;
#BACKGROUND:MAXX UNLIMITED (8-bit)-bg.JPG;
#LYRICSPATH:;
#CDTITLE:;
#MUSIC:MAXX UNLIMITED (8-bit).mp3;
#OFFSET:-2.690;
#SAMPLESTART:14.587;
#SAMPLELENGTH:12.000;
#SELECTABLE:YES;
#BPMS:0.000=300.000,156.000=280.000,188.000=300.000,220.000=150.000,236.000=300.000,268.000=150.000,276.000=320.000;
#STOPS:276.000=3.240
;
#BGCHANGES:;
// cache tags:
#FIRSTBEAT:26.000;
#LASTBEAT:453.000;
#SONGFILENAME:Songs/Music V.I.P ^_^/MAXX UNLIMITED (ver. 8-bit)/MAXX UNLIMITED (8-bit).sm;
#HASMUSIC:1;
#HASBANNER:0;
#MUSICLENGTH:99.787;
// end cache tags

//---------------dance-single - Blank----------------
#NOTES:
     dance-single:
     Blank:
     Hard:
     10:
     0.892,0.965,0.732,0.100,0.000,540.000,73.000,10.000,0.000,0.000:

0000
0000
0000
0000
,
0000
0000
0000
0000
,
0000
0000
0000
0000
,
0000
0000
0000
0000
,
0000
0000
0000
0000
,
0000
0000
0000
0000
,
0000
0000
1001
0000
,
1000
0010
1000
0010
,
1000
0000
0010
0000
1000
0001
0010
0000
,
0001
0010
0001
0010
,
0001
0000
0010
0000
0001
0100
0010
1000
,
0010
1000
0100
0010
,
0001
0000
0100
0000
0010
1000
0001
0000
,
0100
0010
1000
0001
,
1000
0010
1000
0010
0100
0001
0100
0001
,
1000
0000
1000
0001
0000
0001
0000
0001
,
0100
0000
0100
0010
0000
0010
0000
0010
,
1000
0000
1000
0001
0000
0001
0000
0001
,
0100
0010
0000
1010
0000
1001
0000
0101
,
0001
0000
0100
0000
0010
1000
0000
1000
,
0100
0000
0010
0000
0001
0100
0000
0100
,
0001
0000
0010
0000
1000
0001
0000
0001
,
0100
0010
0000
1010
0000
1001
0000
0101
,
0001
0000
1000
0000
0010
1000
0000
1000
,
0001
0000
0001
0000
0100
0010
0000
0010
,
1000
0000
1000
0001
0000
0001
0000
0001
,
0100
0110
1010
1001
,
0101
0000
0001
1000
0000
1000
0000
1000
,
0001
0000
0001
0100
0000
0010
0000
0010
,
1000
0000
1000
0001
0000
0001
0000
0100
,
0010
1010
1001
0101
,
0001
1000
0001
1000
0000
1001
0000
0001
,
0100
0010
1000
0010
0000
1010
0000
1000
,
0001
0100
0010
0100
0000
0101
0000
0001
,
0100
0101
1100
0101
,
1000
0100
0001
0100
0000
1100
0000
1000
,
0001
0100
0001
0100
0000
1100
0000
1000
,
0100
0001
0100
1000
0000
1100
0000
1000
,
0001
0100
0010
1000
0001
0100
0010
1000
,
0100
0001
0000
0001
0100
0000
0010
1000
,
0000
1000
0100
0000
1100
0000
0101
0000
,
0001
0100
0000
0100
0010
0000
0010
1000
,
0000
1000
0100
0000
1100
0000
0101
0000
,
0001
0100
0000
0100
0001
0000
0001
0010
,
0000
0010
0100
0000
1100
0000
1100
0000
,
0001
1000
0000
1000
0001
0000
0001
0100
,
0000
0100
0010
0000
0010
1000
0100
0010
,
0001
0100
0010
0100
0010
1000
0001
0100
,
0010
1000
0100
0010
0001
0100
0001
0100
,
0001
1000
0010
1000
0010
1000
0010
1000
,
0100
0010
0001
0100
0001
0100
0001
0100
,
0010
1000
0100
0001
0100
1000
0100
0010
,
0100
0010
0100
0010
0100
0010
1000
0010
,
1000
0100
0010
0001
0100
0010
1000
0001
,
0100
0010
1000
0100
0010
0001
0100
0001
,
0200
0001
0001
0301
,
0002
1000
2003
0100
,
3200
0010
0010
0000
,
0320
1000
1030
1000
,
0001
0100
0000
0001
0100
0000
0010
1000
,
0000
0010
1000
0000
1100
0000
0011
0000
,
0001
0100
0000
0010
1000
0000
0001
0100
,
0000
0010
1000
0000
1100
0000
1001
0000
,
0001
0100
0000
0010
1000
0000
1000
0100
,
0000
0001
0010
0000
0011
0000
1100
0000
,
1000
0001
0000
0100
0001
0000
0010
1000
,
0100
0010
0001
0100
0010
1000
0001
0100
,
0020
0000
0100
0000
,
0030
0100
0000
0000
0000
0220
0000
0000
,
0000
0330
0000
0000
1000
0000
0000
0000
0001
0000
0000
0000
0100
0000
0000
0000
,
0010
1000
0100
0010
,
0001
0100
0010
1000
,
0100
0000
1000
0000
0100
0000
0000
1000
,
0000
1000
0001
0000
0100
0000
0010
0000
,
1000
0001
0100
0001
,
1000
0010
1000
0100
,
0010
0000
0001
0000
0100
0001
0000
0001
,
0100
0010
1000
0100
,
0010
1000
0100
0001
,
0100
1000
0001
0100
,
0010
1000
0100
0010
,
0001
0010
0001
0000
0100
0000
0010
0000
,
1000
0100
1000
0000
0110
0000
1001
0000
,
0110
0000
0001
1000
0001
0000
1000
0010
,
1000
0000
0001
0100
0010
1000
0100
0010
,
0001
0100
0110
0000
0000
1100
0000
0000
,
0000
0000
0101
0000
0000
0110
0000
0000
,
1000
0001
0100
0010
1000
0010
0000
0000
,
1000
0001
0100
0010
0110
0000
0000
0000
,
0000
0000
1100
0000
0000
0101
0000
0000
,
1100
0000
0101
0000
0000
0101
0000
0000
,
1010
0000
0101
0000
0000
1100
0000
0000
,
1001
0000
0001
0100
0010
0000
0010
1000
,
0100
0010
0101
0000
0000
0110
0000
0000
,
0010
0000
0110
0000
0000
1010
0000
0000
,
1100
0000
0001
0100
0010
0000
1000
0100
,
0010
0000
0001
0100
0010
1000
0001
0100
,
0010
1000
1100
0000
0000
0101
0000
0000
,
0010
0000
0110
0000
0000
1010
0000
0000
,
1000
0000
1001
0000
0000
0101
0000
0000
,
1100
0000
1000
0000
0101
0000
1001
0100
,
0110
0000
0010
1000
0010
0000
1000
0001
,
1000
0000
0001
0100
0010
1000
0100
0010
,
0001
0000
0100
0010
0100
0000
0010
1000
,
0010
0000
1000
0001
1000
0000
0001
0100
,
0010
1000
0100
0010
0001
0000
0001
0100
,
0001
0000
0010
1000
0100
0010
0001
0100
,
0010
0000
1100
0000
0001
0101
0000
0100
,
0010
0000
0110
0000
0010
1000
0000
1000
,
1100
0000
0001
0100
0010
1000
0001
0100
,
0010
1000
0100
0010
0001
0100
0010
1000
,
0001
0100
0220
0000
0000
0000
0000
0000
,
0000
0000
0000
0000
,
0000
0330
0000
0000
;
